Home| All Programs| Today added Progs| Download Status| Customers opinion| Helpdesk| Shopping cart

Program Search:

Shopping Cart:




*Note: Minimum order cost: €20
Maximum Total Price: €1500
We Recommend:
Ivan on Tech - Blockchain Business Masterclass €25 buy download

× Ivan on Tech - Blockchain Business Masterclass Close
Ivan on Tech - Blockchain Business MasterclassWEBRip | English | MP4 | 1920 x 1080 | AVC ~1393 Kbps | 60 fps
AAC | 128 Kbps | 44.1 KHz | 2 channels | ~21 hours | 16.63 GBGenre: eLearning Video / Business, Blockchain, IT
How should your organization adopt blockchain to dominate the market? Find out how big corporation use blockchain today. This course is for everyone who is interested in being part of a blockchain business. You will get a deep understanding of how traditional centralized IT infrastructure works and how decentralized aspects can be introduced and integrated into an existing IT solution.You will learn all about project management, sales, economy, budget, testing, quality assurance (QA) and much more.

All this knowledge will make you capable to lead a team of developers and be in charge of a blockchain project, whether it is your own company or whether you are part of a larger organization.

Instructor

Ivan runs Ivan on Tech - one of the most successful and trusted blockchain channels on Youtube and is also an international blockchain speaker and educator. Millions of people all around the world have listened, learned and been inspired by Ivan. Now he has created a course for his followers and subscribers, so that they can get the same knowledge as the big corporations.

also You can find my other helpful Business-posts
(if old file-links don't show activity, try copy-paste them to the address bar)

MediaInfo: General
Complete name : 03 Business Blockchain Spending - Size of market Ivan on Tech A.mp4
Format : MPEG-4
Format profile : Base Media
Codec ID : isom (isom/iso2/avc1/mp41)
File size : 68.9 MiB
Duration : 6 min 18 s
Overall bit rate mode : Variable
Overall bit rate : 1 530 kb/s

Video
ID : 2
Format : AVC
Format/Info : Advanced Video Codec
Format profile : High@L4.2
Format settings : CABAC / 4 Ref Frames
Format settings, CABAC : Yes
Format settings, RefFrames : 4 frames
Codec ID : avc1
Codec ID/Info : Advanced Video Coding
Duration : 6 min 17 s
Source duration : 6 min 18 s
Bit rate : 1 393 kb/s
Width : 1 912 pixels
Original width : 1 920 pixels
Height : 1 088 pixels
Original height : 1 080 pixels
Display aspect ratio : 16:9
Original display aspect ratio : 16:9
Frame rate mode : Variable
Frame rate : 60.000 FPS
Minimum frame rate : 12.000 FPS
Maximum frame rate : 240.000 FPS
Color space : YUV
Chroma subsampling : 4:2:0
Bit depth : 8 bits
Scan type : Progressive
Bits/(Pixel*Frame) : 0.011
Stream size : 62.8 MiB (91%)
Source stream size : 62.8 MiB (91%)
Writing library : x264 core 152
Encoding settings : cabac=1 / ref=4 / deblock=1:0:0 / analyse=0x3:0x113 / me=umh / subme=8 / psy=1 / psy_rd=1.00:0.00 / mixed_ref=1 / me_range=16 / chroma_me=1 / trellis=1 / 8x8dct=1 / cqm=0 / deadzone=21,11 / fast_pskip=1 / chroma_qp_offset=-2 / threads=24 / lookahead_threads=4 / sliced_threads=0 / nr=0 / decimate=1 / interlaced=0 / bluray_compat=0 / constrained_intra=0 / bframes=3 / b_pyramid=2 / b_adapt=2 / b_bias=0 / direct=3 / weightb=1 / open_gop=0 / weightp=2 / keyint=180 / keyint_min=91 / scenecut=0 / intra_refresh=0 / rc_lookahead=40 / rc=crf / mbtree=1 / crf=23.0 / qcomp=0.60 / qpmin=10 / qpmax=51 / qpstep=4 / vbv_maxrate=5625 / vbv_bufsize=5625 / crf_max=0.0 / nal_hrd=none / filler=0 / ip_ratio=1.41 / aq=1:1.00
mdhd_Duration : 377983

Audio
ID : 1
Format : AAC
Format/Info : Advanced Audio Codec
Format profile : LC
Codec ID : mp4a-40-2
Duration : 6 min 18 s
Bit rate mode : Variable
Bit rate : 128 kb/s
Maximum bit rate : 183 kb/s
Channel(s) : 2 channels
Channel positions : Front: L R
Sampling rate : 44.1 kHz
Frame rate : 43.066 FPS (1024 SPF)
Compression mode : Lossy
Stream size : 5.77 MiB (8%)
Screenshots
× Ivan on Tech - Blockchain Business Masterclass Close
× Ivan on Tech - Blockchain Business Masterclass Close
× Ivan on Tech - Blockchain Business Masterclass Close
× Ivan on Tech - Blockchain Business Masterclass Close
✅ Exclusive eLearning Videos ParRus-blog ← add to bookmarks

Feel free to contact me PM
when links are dead or want any repost
× Ivan on Tech - Blockchain Business Masterclass Close



Download File Size:16.53 GB


Ivan on Tech - Blockchain Business Masterclass
€25
Customers who bought this program also bought:

Home| All Programs| Today added Progs| Download Status| Customers opinion| Helpdesk| Shopping cart      
Copyright 2006-2019 ©   LPStore   All Rights Reserved





Microsoft Office 2019 Professional Plus version 1810 Build 11001.20108 x32 x64 (1 dvd) €99

             

Microsoft Office 2019 for Mac 16.26 VL Multilingual €99






Autodesk AutoCAD 2020 €100

             

SolidWorks 2019 SP3.0 Premium Multilingual €110






Autodesk Revit 2020 Multilingual (1 dvd) €140

             

Autodesk Product Design Suite Ultimate 2020 .sfx (x64) €250