Home| All Programs| Today added Progs| Download Status| Customers opinion| Helpdesk| Shopping cart

Program Search:

Shopping Cart:




*Note: Minimum order cost: €20
Maximum Total Price: €1500
We Recommend:
Unlocking the Secrets of Traditional Design with George Walker €10 buy download

× Unlocking the Secrets of Traditional Design with George Walker Close
Unlocking the Secrets of Traditional Design with George WalkerDVDRip | English | AVI | 640 x 480 | XviD ~1320 kbps | 29.97 fps
MP3 | 104 kbps | 48.0 KHz | 2 channels | 01:08:01 | 699 MBGenre: elearning / Woodworking
Furniture is pleasing to the eye when various elements work together to create a harmonious whole. 18th Century furniture design, like architecture, relied heavily on proportional schemes derived from classical architectural orders. Today's furniture makers can use these design principles to create contemporary or period furniture. George Walker demonstrates how to use this approach to create visual harmony.
also You can watch my other helpful: Woodworking-posts
(if old file-links don't show activity, try copy-paste them to the address bar)

MediaInfo: General
Complete name : George Walker - Unlocking the Secrets of Traditional Design.avi
Format : AVI
Format/Info : Audio Video Interleave
File size : 699 MiB
Duration : 1h 8mn
Overall bit rate : 1 437 Kbps
Writing application : VirtualDubMod 1.5.4.1 (build 2178/release)
Writing library : VirtualDubMod build 2178/release
Video #0
ID : 0
Format : MPEG-4 Visual
Format settings, BVOP : Yes
Format settings, QPel : No
Format settings, GMC : No warppoints
Format settings, Matrix : Default (H.263)
Muxing mode : Packed bitstream
Codec ID : DX50
Codec ID/Hint : DivX 5
Duration : 1h 8mn
Bit rate : 1 320 Kbps
Width : 640 pixels
Height : 480 pixels
Display aspect ratio : 4:3
Frame rate : 29.970 fps
Resolution : 24 bits
Colorimetry : 4:2:0
Scan type : Progressive
Bits/(Pixel*Frame) : 0.143
Stream size : 642 MiB (92%)
Writing library : DivX 6.8.0 (UTC 2007-12-04)
Audio #1
ID : 1
Format : MPEG Audio
Format version : Version 1
Format profile : Layer 3
Codec ID : 55
Codec ID/Hint : MP3
Duration : 1h 8mn
Bit rate mode : Variable
Bit rate : 104 Kbps
Nominal bit rate : 128 Kbps
Channel(s) : 2 channels
Sampling rate : 48.0 KHz
Resolution : 16 bits
Stream size : 50.4 MiB (7%)
Alignment : Aligned on interleaves
Interleave, duration : 24 ms (0.72 video frame)
Interleave, preload duration : 526 ms
Writing library : LAME3.98r
Encoding settings : -m j -V 4 -q 2 -lowpass 17 –abr 128
ScreenShots
× Unlocking the Secrets of Traditional Design with George Walker Close
× Unlocking the Secrets of Traditional Design with George Walker Close
× Unlocking the Secrets of Traditional Design with George Walker Close
× Unlocking the Secrets of Traditional Design with George Walker Close
× Unlocking the Secrets of Traditional Design with George Walker Close
× Unlocking the Secrets of Traditional Design with George Walker Close
× Unlocking the Secrets of Traditional Design with George Walker Close
✅ Exclusive eLearning Videos ParRus-blog ← add to bookmarks

Feel free to contact me PM
when links are dead or want any repost
× Unlocking the Secrets of Traditional Design with George Walker Close



Download File Size:687.82 MB


Unlocking the Secrets of Traditional Design with George Walker
€10
Customers who bought this program also bought:

Home| All Programs| Today added Progs| Download Status| Customers opinion| Helpdesk| Shopping cart      
Copyright 2006-2019 ©   LPStore   All Rights Reserved





Adobe Photoshop CC 2019 20.0.5 x64 Multilingual Portable with plugins and Camera Raw profiles €110

             

Adobe Illustrator CC 2019 23.0.0.530 Multilingual x64 (1 dvd) €75






9327 Fantasy & Sci-Fi eBooks Collection 9327 PDF Books eBook €60


Cambridge University History Collection PDF eBooks €100

                   





Autodesk Revit 2020 Multilingual (1 dvd) €140

             

Autodesk Product Design Suite Ultimate 2020 .sfx (x64) €250