Home| All Programs| Today added Progs| Download Status| Customers opinion| Helpdesk| Shopping cart

Program Search:

Shopping Cart:




*Note: Minimum order cost: €20
Maximum Total Price: €1500
We Recommend:
IDEA World Nutrition and Behavior Change Summit - Is it Time to Eat Yet €20 buy download

× IDEA World Nutrition and Behavior Change Summit - Is it Time to Eat Yet? Close
IDEA World Nutrition and Behavior Change Summit - Is it Time to Eat Yet?
WEBRip | English | MP4 + PDF Guide | 1920 x 1080 | AVC ~5400 kbps | 29.970 fps
AAC | 160 Kbps | 44.1 KHz | 2 channels | 00:56:52 | 2.21 GB
Genre: eLearning Video / Health, Diet, Sports
Revolutionary New Nobel Prize Winning Body Clock Science Has the Answer The body clock gene plays a critical role in metabolic function. In a world of 24/7 nonstop chaotic eating, relentless stress, continuous screen-gazing, sedentary lifestyle and sleep deprivation, time has become irrelevant. Such constant disruptions of the powerful circadian rhythm are wreaking life-threatening havoc on mental and physical health. Learn a novel, science-based model to guide when and how to optimally nourish and regenerate that is truly transformational. Be prepared for surprises!Learning Objectives

Define circadian rhythm and its two biological components.
Identify the master biological clock and its cellular networks.
Discuss highlights of recent scientific breakthroughs in the field of chronobiology.
Explain the central focus of time-restricted feeding and its relationship to circadian rhythm.
Define autophagy and its interrelationship with time-restricted feeding.
Understand the health significance of achieving synchrony with daily circadian rhythm.

Dr. Pamela Peeke IDEA Author/Presenter

Pamela Peeke, MD, MPH, FACP, is a Pew Foundation Scholar in nutrition and metabolism and an assistant professor of medicine at the University of Maryland. She serves as chief medical correspondent for Discovery Health TV and is host of the National Body Challenge show. She is a New York Times best-selling author and a nationally recognized speaker on fitness and nutrition.

also You can watch my other helpful: Health-posts
(if old file-links don't show activity, try copy-paste them to the address bar)

MediaInfo: General
Complete name : Is It Time to Eat Yet- Nobel Prize-Winning Body Clock Science Has the Answer.mp4
Format : MPEG-4
Format profile : Base Media
Codec ID : isom (isom/iso2/avc1/mp41)
File size : 2.21 GiB
Duration : 56 min 52 s
Overall bit rate : 5 562 kb/s
Writing application : Lavf57.71.100

Video
ID : 2
Format : AVC
Format/Info : Advanced Video Codec
Format profile : Baseline@L4
Format settings : 3 Ref Frames
Format settings, CABAC : No
Format settings, RefFrames : 3 frames
Codec ID : avc1
Codec ID/Info : Advanced Video Coding
Duration : 56 min 52 s
Bit rate : 5 400 kb/s
Width : 1 920 pixels
Height : 1 080 pixels
Display aspect ratio : 16:9
Frame rate mode : Constant
Frame rate : 29.970 (30000/1001) FPS
Color space : YUV
Chroma subsampling : 4:2:0
Bit depth : 8 bits
Scan type : Progressive
Bits/(Pixel*Frame) : 0.087
Stream size : 2.14 GiB (97%)
Writing library : x264 core 148
Encoding settings : cabac=0 / ref=3 / deblock=1:0:0 / analyse=0x1:0x111 / me=hex / subme=7 / psy=1 / psy_rd=1.00:0.00 / mixed_ref=1 / me_range=16 / chroma_me=1 / trellis=1 / 8x8dct=0 / cqm=0 / deadzone=21,11 / fast_pskip=1 / chroma_qp_offset=-2 / threads=34 / lookahead_threads=5 / sliced_threads=0 / nr=0 / decimate=1 / interlaced=0 / bluray_compat=0 / constrained_intra=0 / bframes=0 / weightp=0 / keyint=90 / keyint_min=9 / scenecut=40 / intra_refresh=0 / rc_lookahead=40 / rc=abr / mbtree=1 / bitrate=5400 / ratetol=1.0 / qcomp=0.60 / qpmin=0 / qpmax=69 / qpstep=4 / ip_ratio=1.40 / aq=1:1.00
Color range : Limited
Color primaries : BT.709
Transfer characteristics : BT.709
Matrix coefficients : BT.709

Audio
ID : 1
Format : AAC
Format/Info : Advanced Audio Codec
Format profile : LC
Codec ID : mp4a-40-2
Duration : 56 min 52 s
Bit rate mode : Constant
Bit rate : 160 kb/s
Channel(s) : 2 channels
Channel positions : Front: L R
Sampling rate : 44.1 kHz
Frame rate : 43.066 FPS (1024 SPF)
Compression mode : Lossy
Stream size : 65.1 MiB (3%)
Default : Yes
Alternate group : 1 Screenshots
× IDEA World Nutrition and Behavior Change Summit - Is it Time to Eat Yet? Close
× IDEA World Nutrition and Behavior Change Summit - Is it Time to Eat Yet? Close
× IDEA World Nutrition and Behavior Change Summit - Is it Time to Eat Yet? Close
× IDEA World Nutrition and Behavior Change Summit - Is it Time to Eat Yet? Close
✅ Exclusive eLearning Videos ParRus-blog ← add to bookmarks

Feel free to contact me PM
when links are dead or want any repost
× IDEA World Nutrition and Behavior Change Summit - Is it Time to Eat Yet? Close



Download File Size:2.2 GB


IDEA World Nutrition and Behavior Change Summit - Is it Time to Eat Yet
€20
Customers who bought this program also bought:

Home| All Programs| Today added Progs| Download Status| Customers opinion| Helpdesk| Shopping cart      
Copyright 2006-2019 ©   LPStore   All Rights Reserved





9327 Fantasy & Sci-Fi eBooks Collection 9327 PDF Books eBook €60


Cambridge University History Collection PDF eBooks €100

                   





Microsoft Office 2019 Professional Plus version 1810 Build 11001.20108 x32 x64 (1 dvd) €99

             

Microsoft Office 2019 for Mac 16.26 VL Multilingual €99






Autodesk Revit 2020 Multilingual (1 dvd) €140

             

Autodesk Product Design Suite Ultimate 2020 .sfx (x64) €250