Home| All Programs| Today added Progs| Download Status| Customers opinion| Helpdesk| Shopping cart

Program Search:

Shopping Cart:




*Note: Minimum order cost: €20
Maximum Total Price: €1500
We Recommend:
Detox Dialogues - Heal & Strengthen The Body by Detoxing 2018 €20 buy download

× Detox Dialogues – Heal & Strengthen The Body by Detoxing (2018) Close
Detox Dialogues – Heal & Strengthen The Body by Detoxing (2018)
WEBRip | English | MP4 + PDF Guides | 1280 x 720 | AVC ~1165 kbps | 25 fps
AAC | 256 Kbps | 48.0 KHz | 2 channels | ~15 hours | 8.84 GB
Genre: eLearning Video / Health, Diet, Sports
There is no one-size-fits-all with health and detoxification… Everyone is different… In this summit, we have gathered top experts from around the world into one setting to help you find the best options for you to help you detox your body to overcome and prevent disease…With your Premium Pass to the Detox Dialogues, you’ll watch and listen to 20+ experts giving you 5 full days of education and tips…

…all designed to help you detox naturally and live life to the fullest…

Here’s Why DETOX When Other Things Fail and Why The Detox Dialogues Can Transform Your Life Forever…

I’ve known the frustrations of wanting to change and improve my life and not being able to get there.

For years I was tired of hearing things like “do more exercise” and “eat better foods” because while I wanted to do those things…

I just couldn’t find an easy way to actually accomplish them. I always had these unconscious patterns running my life that kept me stuck where I was, struggling with my energy, bad skin, stubborn body fat, always getting sick and endless trips to the doctor.

It wasn’t until I started using Detoxification that I was able to recognize an actual shift in my long term health and actually feel different in my body. That’s when I knew things were different. My energy improved, my skin issues cleared up, I lost that suborn body fat and I found the love for life again…

Think About Any Challenges You’re Currently Dealing With, Whether They Be With Disease, Lack Of Energy, Weight Loss, Mental Clarity, Physical Pain, Overwhelming Emotions, Or Whatever Else You’re Struggling With…

Are there things that you could be doing, if there were absolutely no limitations on you, that would help this problem..?

For example with weight loss, could you be exercising more and eating better…?

I’m sure you’d say “yes, absolutely.” The challenge is of course the addiction patterns of the way we think, feel and act is different…

You see, our bodies have been HIJACKED by toxins, such as artificial sweeteners, preservatives and others.

Our bodies were never designed to take on that many toxins and they become overwhelmed.

When toxins accumulate inside they change the entire body system.

The result is slow metabolism, low energy, digestive issues, rashes, and other skin problems, premature aging, poor concentration, inability to lose weight, anxiety, and even depression.

This is what Detoxification does so beautifully..

The main focus of this detox is to rid your body of harmful toxins by cleansing your major organs: liver, kidneys, pancreas, lymphatic system and digestive tract so your body can start to heal itself!

A good Detox focuses on a diet that is rich in alkaline foods because if you eat too many acid-forming foods our bodies store the acid in the fat cells to protect organs and tissues; which makes losing weight difficult!

The only way to keep your body healthy and protected from dangerous toxins is to use a natural, nutritious and effective cleansing protocols.

Flu​sh Out Dangerous Toxins
Transform & Heal Your Body
Boost Energy Levels
Balance Your Hormones

There’s no reason to suffer from toxin build up any longer, start cleansing your body and feeling healthier than ever before.
GET LIFETIME ACCESS NOW FOR ONLY $99 $59

I want you to be able to do what I did and what so many people have done with DETOXIFICATION, which is to drastically improve your life in a short period of time, in a way that is simple and effective…

I’ve brought together the world’s leading Detoxification Experts from around the world, to guide you in creating the life that you truly desire.

A life where you have the things you want like physical, mental, emotional and spiritual health…

…the weight, body and health you deserve…

…deep and meaningful relationships…

…and a level of stress that is normal and healthy.

I want to help you create a life that is truly fulfilling at its core!

That’s what the Detox Dialogues is all about and that’s why.

…I’ve brought together the world’s leading Detox experts to share their knowledge in 20+ content-packed presentations!

Here are the Speakers and Their Topics…
View Preview

Mason Taylor
The Rise of Medicinal Mushrooms
View Preview

Tyler Tolman
Making Detox Simple
View Preview

Dr Jay Davidson
Parasites
View Preview

Dr Todd Watts
Toxicity and Parasites
View Preview

James Colquhoun
Detox Matters
View Preview

Dr Dan Pompa
The Detox Toolkit
View Preview

Dr. Tom O’Bryan
Wake Up To Detoxification
View Preview

Dr. Caroline Leaf
Switch on the Brain
View Preview

Wendy Myers
Detoxing Toxic Metals
View Preview

Erin Elizabeth
Detox to Lose Weight
View Preview

Dr. Deanna Minich
The Whole Detox
View Preview

Dr John Dempster
Detoxing for Gut Health
View Preview

Dr. Joel Fuhrman
Detox Through Food
View Preview

Sebastian Mierau
Sauna Detoxification
View Preview

Dr. Trevor Cates
Clear Skin From Within
View Preview

NIki Gratrix
The Impact of Stress and Trauma
View Preview

Joel Sprechman
Detoxing to Heal
View Preview

Lee Holmes
How To Detox The Gut
View Preview

Natalie Warner
Detox Protocols
View Preview

Jason Prall
Avoiding Toxins
View Preview

Hilde Larsen
Detoxification will Save Your Life
also You can watch my other helpful: Health-posts
(if old file-links don't show activity, try copy-paste them to the address bar)

MediaInfo: General
Complete name : DD- Final Hilde Larsen - Surrender to DetoxG-P@FB.mp4
Format : MPEG-4
Format profile : Base Media / Version 2
Codec ID : mp42 (mp42/mp41/isom/avc1)
File size : 394 MiB
Duration : 38 min 39 s
Overall bit rate mode : Variable
Overall bit rate : 1 425 kb/s
Encoded date : UTC 2018-06-10 14:40:14
Tagged date : UTC 2018-06-10 14:40:14

Video
ID : 1
Format : AVC
Format/Info : Advanced Video Codec
Format profile : High@L3.2
Format settings : CABAC / 5 Ref Frames
Format settings, CABAC : Yes
Format settings, RefFrames : 5 frames
Codec ID : avc1
Codec ID/Info : Advanced Video Coding
Duration : 38 min 39 s
Bit rate : 1 165 kb/s
Width : 1 280 pixels
Height : 720 pixels
Display aspect ratio : 16:9
Frame rate mode : Constant
Frame rate : 25.000 FPS
Color space : YUV
Chroma subsampling : 4:2:0
Bit depth : 8 bits
Scan type : Progressive
Bits/(Pixel*Frame) : 0.051
Stream size : 322 MiB (82%)
Writing library : x264 core 155 r10 7d0ff22
Encoding settings : cabac=1 / ref=5 / deblock=1:0:0 / analyse=0x3:0x113 / me=hex / subme=8 / psy=1 / psy_rd=1.00:0.00 / mixed_ref=1 / me_range=16 / chroma_me=1 / trellis=2 / 8x8dct=1 / cqm=0 / deadzone=21,11 / fast_pskip=1 / chroma_qp_offset=-2 / threads=22 / lookahead_threads=3 / sliced_threads=0 / nr=0 / decimate=1 / interlaced=0 / bluray_compat=0 / stitchable=1 / constrained_intra=0 / bframes=3 / b_pyramid=2 / b_adapt=2 / b_bias=0 / direct=3 / weightb=1 / open_gop=0 / weightp=2 / keyint=infinite / keyint_min=25 / scenecut=40 / intra_refresh=0 / rc_lookahead=50 / rc=crf / mbtree=1 / crf=20.0 / qcomp=0.60 / qpmin=5 / qpmax=69 / qpstep=4 / vbv_maxrate=2750 / vbv_bufsize=7500 / crf_max=0.0 / nal_hrd=none / filler=0 / ip_ratio=1.40 / aq=1:1.00
Encoded date : UTC 2018-06-10 14:40:14
Tagged date : UTC 2018-06-10 14:40:14
Color range : Limited
Color primaries : BT.709
Transfer characteristics : BT.709
Matrix coefficients : BT.709

Audio
ID : 2
Format : AAC
Format/Info : Advanced Audio Codec
Format profile : LC
Codec ID : mp4a-40-2
Duration : 38 min 39 s
Bit rate mode : Variable
Bit rate : 256 kb/s
Channel(s) : 2 channels
Channel positions : Front: L R
Sampling rate : 48.0 kHz
Frame rate : 46.875 FPS (1024 SPF)
Compression mode : Lossy
Stream size : 70.8 MiB (18%)
Encoded date : UTC 2018-06-10 14:40:14
Tagged date : UTC 2018-06-10 14:40:14 Screenshots
× Detox Dialogues – Heal & Strengthen The Body by Detoxing (2018) Close
× Detox Dialogues – Heal & Strengthen The Body by Detoxing (2018) Close
× Detox Dialogues – Heal & Strengthen The Body by Detoxing (2018) Close
× Detox Dialogues – Heal & Strengthen The Body by Detoxing (2018) Close
✅ Exclusive eLearning Videos ParRus-blog ← add to bookmarks

Feel free to contact me PM
when links are dead or want any repost
× Detox Dialogues – Heal & Strengthen The Body by Detoxing (2018) Close



Download File Size:8.21 GB


Detox Dialogues - Heal & Strengthen The Body by Detoxing 2018
€20
Customers who bought this program also bought:

Home| All Programs| Today added Progs| Download Status| Customers opinion| Helpdesk| Shopping cart      
Copyright 2006-2019 ©   LPStore   All Rights Reserved





Adobe Master Collection CC 2019 €260


Adobe Premiere Elements 2019 17.0 €35


Microsoft Windows 10 Pro With Office and More x64 (1 dvd) €150






Autodesk Revit 2020 Multilingual (1 dvd) €140

             

Autodesk Product Design Suite Ultimate 2020 .sfx (x64) €250






Intuit QuickBooks Enterprise Accountant 18.0 R4 €40


Mindjet MindManager 2019 19.1.197 Multilingual €20


Chief Architect Premier X11 21.1.1.2 x64 €50