Home| All Programs| Today added Progs| Download Status| Customers opinion| Helpdesk| Shopping cart

Program Search:

Shopping Cart:




*Note: Minimum order cost: €20
Maximum Total Price: €1500
We Recommend:

Chris Svorcik - Simple Wave Analysis and Trading €20 buy download

× Chris Svorcik - Simple Wave Analysis and Trading Close
Chris Svorcik - Simple Wave Analysis and TradingWEBRip | English | MP4 | 1284 x 720 | AVC ~547 Kbps | 25 fps
AAC | 87 Kbps | 44.1 KHz | 2 channels | ~7 hours | 3.09 GBGenre: eLearning Video / Forex, Trading, Stock
The ecs.SWAT or “Simple Wave Analysis and Trading” - a method that makes wave analysis and trading achievable and accessible for all types of traders - was developed as a result of his fascination with these methods of trading. This approach has already helped hundreds of traders without dwelling deep into technicalities of wave analysis and momentum trading.Who Is It For?
The system works best if you are looking for a convenient way to understand wave theory and effectively apply it in trading.

Hi Traders
Over the last 10 years, I've been practicing technical analysis and education. I'm particularly fond of Waves, as well as using trend, momentum, patterns, support and resistance tools to crack down the market structure .

My Favourite Tools:

Trend Lines, Moving Averages, Fibonacci Levels, Fractals and Price Action.Comprehensive video tutorials and trading handouts

This trading system removes the guess work usually seen with Elliott Wave analysis. The method transforms discretionary, insecure wave trading to a relatively simple and clear trading systems – both discretionary and non-discretionary.
The simple approach is a system that all traders can use – even traders who do not intend on counting or labeling waves or those that do not enjoy waves in any shape or form. Explaining the system includesvideos, handouts, and tools.
Risk and trade management setups:

Risk management:

you will find out which parts of the price action carry higher risk and which parts are known for higher success ratio. This in turn can be used for reducing or increasing the risk at the right timing.

4-step trade management plan:

understand the market cycles properly and be able to manage the trade in accordance with the market structure.

Money management. Know where to place the stop loss at the best spot. Know where to set your target at key levels of confluence. Know when to aim for a smaller/higher reward to risk (r:r) ratio

The course will explain when to use a tight or a loose trail stop loss and when it is better to risk relatively less or normal.

Three fully rules based trading systems (totally non-discretionary)

Five discretionary trading systems (three with trend and two counter trend)

Discover the best Fibonacci levels, learn the correct swings for Fibonacci placement, time the Fibonacci retracements levels at the correct moments, and pinpoint the most profitable Fibonacci targets

Value: $449
More Info: Salepage

also You can find my other: Trading-posts

MediaInfo: General
Complete name : 4. Momentum & Correction - ECS- Elite CurrenSea.mp4
Format : MPEG-4
Format profile : Base Media
Codec ID : isom (isom/iso2/avc1/mp41)
File size : 83.4 MiB
Duration : 18 min 14 s
Overall bit rate mode : Variable
Overall bit rate : 639 kb/s
Encoded date : UTC 2019-06-08 23:54:00
Tagged date : UTC 2019-06-08 23:54:00
Writing application : Lavf51.12.1

Video
ID : 1
Format : AVC
Format/Info : Advanced Video Codec
Format profile : High@L3.2
Format settings : CABAC / 1 Ref Frames
Format settings, CABAC : Yes
Format settings, RefFrames : 1 frame
Format settings, GOP : M=1, N=12
Codec ID : avc1
Codec ID/Info : Advanced Video Coding
Duration : 18 min 14 s
Bit rate mode : Variable
Bit rate : 547 kb/s
Width : 1 284 pixels
Height : 720 pixels
Display aspect ratio : 16:9
Frame rate mode : Constant
Frame rate : 25.000 FPS
Color space : RGB
Chroma subsampling : 4:2:0
Bit depth : 8 bits
Scan type : Progressive
Bits/(Pixel*Frame) : 0.024
Stream size : 71.4 MiB (86%)
Encoded date : UTC 2019-06-08 23:54:00
Tagged date : UTC 2019-06-08 23:54:00
Color range : Limited
Matrix coefficients : Identity

Audio
ID : 2
Format : AAC
Format/Info : Advanced Audio Codec
Format profile : LC
Codec ID : mp4a-40-2
Duration : 18 min 14 s
Bit rate mode : Variable
Bit rate : 87.0 kb/s
Channel(s) : 2 channels
Channel positions : Front: L R
Sampling rate : 44.1 kHz
Frame rate : 43.066 FPS (1024 SPF)
Compression mode : Lossy
Stream size : 11.4 MiB (14%)
Encoded date : UTC 2019-06-08 23:54:00
Tagged date : UTC 2019-06-08 23:54:00
Screenshots
× Chris Svorcik - Simple Wave Analysis and Trading Close
× Chris Svorcik - Simple Wave Analysis and Trading Close
× Chris Svorcik - Simple Wave Analysis and Trading Close
× Chris Svorcik - Simple Wave Analysis and Trading Close
× Chris Svorcik - Simple Wave Analysis and Trading Close
✅ Exclusive eLearning Videos ParRus-blog ← add to bookmarks

Feel free to contact me PM
when links are dead or want any repost
× Chris Svorcik - Simple Wave Analysis and Trading Close



Download File Size:3.02 GB


Chris Svorcik - Simple Wave Analysis and Trading
€20
Customers who bought this program also bought:

Home| All Programs| Today added Progs| Download Status| Customers opinion| Helpdesk| Shopping cart      
Copyright 2006-2019 ©   LPStore   All Rights Reserved





Adobe Acrobat Pro DC 2019.012.20034 Multilingual €70


MathWorks MATLAB R2019a (1 dvd) €100


Adobe Acrobat Pro DC 2019.012.20034 Multilingual for Mac €70






Microsoft Office 2019 Professional Plus version 1810 Build 11001.20108 x32 x64 (1 dvd) €99

             

Microsoft Office 2019 for Mac 16.26 VL Multilingual €99






Autodesk Revit 2020 Multilingual (1 dvd) €140

             

Autodesk Product Design Suite Ultimate 2020 .sfx (x64) €250