Home| All Programs| Today added Progs| Download Status| Customers opinion| Helpdesk| Shopping cart

Program Search:

Shopping Cart:




*Note: Minimum order cost: €20
Maximum Total Price: €1500
We Recommend:
Udacity - Java Developer Nanodegree v1.0.0 (2019) €25 buy download

× Udacity - Java Developer Nanodegree v1.0.0 (2019) Close
Udacity - Java Developer Nanodegree v1.0.0 (2019)WEBRip | English | MP4 | 1280 x 720 | AVC ~938 Kbps | 30 fps
AAC | 128 Kbps | 44.1 KHz | 2 channels | 14:59:38 | 3.26 GBGenre: Video Tutorial
Learn enterprise scale back-end development with Java, and be prepared for the software engineering jobs that are in demand at a majority of Fortune 500 companies like Google, Amazon, Netflix, and moreContent:

Part 01-Module 01-Lesson 01_Nanodegree Introduction
Part 01-Module 02-Lesson 01_Welcome to Udacity
Part 01-Module 02-Lesson 02_Get Help with Your Account
Part 02-Module 01-Lesson 01_Java Refresher Course
Part 02-Module 01-Lesson 02_Introduction to the Spring Part 02-Module 01-Lesson 03_Spring Boot template engine
Part 02-Module 01-Lesson 04_Spring Boot - continued
Part 02-Module 01-Lesson 05_Create a Chat Room Part 03-Module 01-Lesson 01_Overview
Part 03-Module 01-Lesson 02_REST APIs
Part 03-Module 01-Lesson 03_GraphQL APIs
Part 03-Module 01-Lesson 04_Microservices
Part 03-Module 01-Lesson 05_Security
Part 03-Module 01-Lesson 06_Consuming SOAP & REST
Part 03-Module 01-Lesson 07_Documentation
Part 03-Module 01-Lesson 08_Unit & Integration Tests
Part 03-Module 01-Lesson 09_Project Build the Backend Part 04-Module 01-Lesson 01_RDBMS & JDBC
Part 04-Module 01-Lesson 02_Java Persistence API
Part 04-Module 01-Lesson 03_NoSQL and MongoDB
Part 04-Module 01-Lesson 04_MongoDB for Java
Part 04-Module 01-Lesson 05_Midterm Customer Reviews API
Part 04-Module 01-Lesson 06_Final - Customer Reviews API
Part 04-Module 02-Lesson 01_Optimize Your GitHub Profile
Part 05-Module 01-Lesson 01_Authentication and Part 05-Module 01-Lesson 02_Testing
Part 05-Module 01-Lesson 03_Logging
Part 05-Module 01-Lesson 04_Splunk
Part 05-Module 01-Lesson 05_CICD
Part 05-Module 01-Lesson 06_Project
Part 05-Module 02-Lesson 01_Take 30 Min to Improve your Part 06-Module 01-Lesson 01_Variables and Data Types
Part 06-Module 01-Lesson 02_Control Flow and Conditionals
Part 06-Module 01-Lesson 03_Functions
Part 06-Module 01-Lesson 04_Loops
Part 06-Module 01-Lesson 05_IntelliJ and Debugging

also You can find my other useful: programming-posts

MediaInfo: General
Complete name : 02. JAVA C2 L0 Course Intro-9sNj7tGyiSQ.mp4
Format : MPEG-4
Format profile : Base Media / Version 2
Codec ID : mp42 (isom/mp42)
File size : 14.6 MiB
Duration : 1 min 54 s
Overall bit rate mode : Variable
Overall bit rate : 1 069 kb/s
Encoded date : UTC 2019-07-09 22:10:25
Tagged date : UTC 2019-07-09 22:10:25
gsst : 0
gstd : 114451

Video
ID : 1
Format : AVC
Format/Info : Advanced Video Codec
Format profile : Main@L3.1
Format settings : CABAC / 3 Ref Frames
Format settings, CABAC : Yes
Format settings, RefFrames : 3 frames
Codec ID : avc1
Codec ID/Info : Advanced Video Coding
Duration : 1 min 54 s
Bit rate : 938 kb/s
Width : 1 280 pixels
Height : 720 pixels
Display aspect ratio : 16:9
Frame rate mode : Constant
Frame rate : 30.000 FPS
Color space : YUV
Chroma subsampling : 4:2:0
Bit depth : 8 bits
Scan type : Progressive
Bits/(Pixel*Frame) : 0.034
Stream size : 12.8 MiB (88%)
Title : ISO Media file produced by Google Inc. Created on: 07/09/2019.
Encoded date : UTC 2019-07-09 22:10:25
Tagged date : UTC 2019-07-09 22:10:25
Color range : Limited
Color primaries : BT.709
Transfer characteristics : BT.709
Matrix coefficients : BT.709

Audio
ID : 2
Format : AAC
Format/Info : Advanced Audio Codec
Format profile : LC
Codec ID : mp4a-40-2
Duration : 1 min 54 s
Bit rate mode : Variable
Bit rate : 128 kb/s
Channel(s) : 2 channels
Channel positions : Front: L R
Sampling rate : 44.1 kHz
Frame rate : 43.066 FPS (1024 SPF)
Compression mode : Lossy
Stream size : 1.75 MiB (12%)
Title : ISO Media file produced by Google Inc. Created on: 07/09/2019.
Language : English
Encoded date : UTC 2019-07-09 22:10:25
Tagged date : UTC 2019-07-09 22:10:25
Screenshots
× Udacity - Java Developer Nanodegree v1.0.0 (2019) Close
× Udacity - Java Developer Nanodegree v1.0.0 (2019) Close
× Udacity - Java Developer Nanodegree v1.0.0 (2019) Close
× Udacity - Java Developer Nanodegree v1.0.0 (2019) Close
✅ Exclusive eLearning Videos ParRus-blog ← add to bookmarks

Feel free to contact me PM
when links are dead or want any repost
× Udacity - Java Developer Nanodegree v1.0.0 (2019) Close



Download File Size:3.2 GB


Udacity - Java Developer Nanodegree v1.0.0 (2019)
€25
Customers who bought this program also bought:

Home| All Programs| Today added Progs| Download Status| Customers opinion| Helpdesk| Shopping cart      
Copyright 2006-2019 ©   LPStore   All Rights Reserved





9327 Fantasy & Sci-Fi eBooks Collection 9327 PDF Books eBook €60


Cambridge University History Collection PDF eBooks €100

                   





Autodesk Revit 2020 Multilingual (1 dvd) €140

             

Autodesk Product Design Suite Ultimate 2020 .sfx (x64) €250






Intuit QuickBooks Enterprise Accountant 18.0 R4 €40


Mindjet MindManager 2019 19.1.197 Multilingual €20


Chief Architect Premier X11 21.1.1.2 x64 €50