Home| All Programs| Today added Progs| Download Status| Customers opinion| Helpdesk| Shopping cart

Program Search:

Shopping Cart:




*Note: Minimum order cost: €20
Maximum Total Price: €1500
We Recommend:

SMB - The Winning Trader €30 buy download

× SMB – The Winning Trader Close
SMB – The Winning TraderWEBRip | English | MP4 + PDF Guides | 1280 x 720 | AVC ~347 Kbps | 20 fps
AAC | 132 Kbps | 44.1 KHz | 2 channels | ~42 hours | 22.36 GBGenre: eLearning Video / Forex, Trading, Stock
This elite training program will guide you step-by-step to discover 10 different professional trading strategies that can help you become a consistently profitable trader – and potentially earn a spot on our trading desk.During the program, you will have access to live mentoring meetings where you will see these strategies implemented in the current market.

By the end of this program, you will have spent time learning 10 powerful strategies from professional traders that successfully earn a living using the same setups you will be taught.

You will learn 10 highly effective trade setups and strategies that our professional traders use each and every day. Many traders make their living off just a few of these trades. By adding all 10 strategies to your PlayBook, you greatly increase your chances of finding the best trades for your skills, temperment, and trading niche.

Inside The Winning Trader

Learn 10 trading setups used by professional traders
Join DAILY mentoring sessions to discuss these trades as they arise in the market that day
Ask questions about real time trades during our mentoring meetings that include traders from our desk that are making these trades with the firm's capital
Train with a professional trading desk
Taught by author, co-founder Mike Bellafiore and co-founder Steve Spencer
Also special guest lectures from SMB traders who make their living by trading the very same setups you will be taught
Train online – parallel to our professional prop firm traders in New York City
We'll teach you how to earn a funded trading account. By joining this program, you have the opportunity to stand out from the crowd by actively participating in the mentoring meetings and showing the firm partners your excellent PlayBook of trades.

Value: $6000
More Info: Salepage

also: The SMB Training Foundation
(if old file-links don't show activity, try copy-paste them to the address bar)

and You can find my other useful: Trading-posts

MediaInfo: General
Complete name 2017-03-10 The Winning Trader.mp4
Format : MPEG-4
Format profile : Base Media / Version 2
Codec ID : mp42 (isom/mp41/avc1)
File size : 169 MiB
Duration : 49 min 9 s
Overall bit rate mode : Variable
Overall bit rate : 480 kb/s
Encoded date : UTC 2019-07-30 05:56:42
Tagged date : UTC 2019-07-30 05:56:42
Writing library : Apple QuickTime
IsTruncated : Yes

Video
ID : 1
Format : AVC
Format/Info : Advanced Video Codec
Format profile : Main@L3.1
Format settings : CABAC / 3 Ref Frames
Format settings, CABAC : Yes
Format settings, RefFrames : 3 frames
Codec ID : avc1
Codec ID/Info : Advanced Video Coding
Duration : 49 min 9 s
Bit rate : 347 kb/s
Width : 1 280 pixels
Height : 720 pixels
Display aspect ratio : 16:9
Frame rate mode : Constant
Frame rate : 20.000 FPS
Color space : YUV
Chroma subsampling : 4:2:0
Bit depth : 8 bits
Scan type : Progressive
Bits/(Pixel*Frame) : 0.019
Stream size : 122 MiB (72%)
Language : English
Encoded date : UTC 2019-07-30 05:56:42
Tagged date : UTC 2019-07-30 05:56:42
Color range : Limited
Color primaries : BT.709
Transfer characteristics : BT.709
Matrix coefficients : BT.709

Audio
ID : 2
Format : AAC
Format/Info : Advanced Audio Codec
Format profile : LC
Codec ID : mp4a-40-2
Duration : 49 min 9 s
Bit rate mode : Variable
Bit rate : 132 kb/s
Maximum bit rate : 176 kb/s
Channel(s) : 2 channels
Channel positions : Front: L R
Sampling rate : 44.1 kHz
Frame rate : 43.066 FPS (1024 SPF)
Compression mode : Lossy
Stream size : 45.8 MiB (27%)
Language : English
Encoded date : UTC 2019-07-30 05:56:42
Tagged date : UTC 2019-07-30 05:56:42
Screenshots
× SMB – The Winning Trader Close
× SMB – The Winning Trader Close
× SMB – The Winning Trader Close
× SMB – The Winning Trader Close
× SMB – The Winning Trader Close
× SMB – The Winning Trader Close
✅ Exclusive eLearning Videos ParRus-blog ← add to bookmarks

Feel free to contact me PM
when links are dead or want any repost
× SMB – The Winning Trader Close



Download File Size:22.26 GB


SMB - The Winning Trader
€30
Customers who bought this program also bought:

Home| All Programs| Today added Progs| Download Status| Customers opinion| Helpdesk| Shopping cart      
Copyright 2006-2019 ©   LPStore   All Rights Reserved





Microsoft Office 2019 Professional Plus version 1810 Build 11001.20108 x32 x64 (1 dvd) €99

             

Microsoft Office 2019 for Mac 16.26 VL Multilingual €99






Intuit QuickBooks Enterprise Accountant 18.0 R4 €40


Mindjet MindManager 2019 19.1.197 Multilingual €20


Chief Architect Premier X11 21.1.1.2 x64 €50






FileMaker Pro 18 Advanced 18.0.2.209 Multilingual €60


Pinnacle Studio Ultimate 22 €25


CorelDRAW Graphics Suite 2019 Multilingual €60