Home| All Programs| Today added Progs| Download Status| Customers opinion| Helpdesk| Shopping cart

Program Search:

Shopping Cart:




*Note: Minimum order cost: €20
Maximum Total Price: €1500
We Recommend:

Fotis Trading Academy - Global Macro Pro Trading Course €30 buy download

× Fotis Trading Academy – Global Macro Pro Trading Course Close
Fotis Trading Academy – Global Macro Pro Trading CourseWEBRip | English | MP4 | 788 x 442 | AVC ~558 Kbps | 30 fps
AAC | 96 Kbps | 44.1 KHz | 2 channels | ~40 hours | 13.7 GBGenre: eLearning Video / Trading, Stock
DISCOVER HOW TO TRADE LIKE A PROFESSIONAL IN LESS TIME THAN YOU IMAGINE. If you are so close to trading success that you can almost “smell” it; or if you’re serious about giving up your day job or securing your retirement fund, this Global Macro Trading Course will show you how to trade properly. In order to trade successfully, you need to start treating trading like a business. At the end of the day, if you treat trading like a hobby, it will pay you like a hobby.No matter whether you’re a complete trading rookie who’s just watched 90% of your account disappear in less than 90 days and are on the verge of giving up; or if you’re a reasonably successful retail trader, this Global Macro Pro Trading Course is the perfect solution you.
If you truly want to become a successful, professional trader, this course will give you the tools and the strategy to make that happen.

Global Macro pro Trading Course – WHAT YOU GET FROM THE TRAINING
The Fotis Trading Academy Global Macro Pro Training Course is our flagship course and gives you access to everything you get with our
Macro Fundamentals Course plus a whole lot more.

When you choose this solution, you get everything you need to become the professional trader you want to be. This course will allow you to become an excellent trader and investor by learning from the experts at the Academy.
You’ll also get to sit in our live training sessions to find out what we’re going to trade in the week ahead as well as the chance to benefit directly from the wealth of information we share in our online community. But more than this, you’ll enjoy personal mentoring and will be made accountable for your trading actions. The mentoring process we have developed is all that some people need to take them from playing at trading to professional trader status.

When you choose our Global Macro Pro Trading Course, you’ll also get a whole host of proprietary software that we’ve invested thousands in to help make your trading life easier and your decisions more informed. But more than this, you’ll also get an Advanced Technical Analysis Course as well as Auction Market Theory and Market Profile. What this means is that this course gives you absolutely everything you could possibly need to make trading your future.

When you successfully combine Macro-Economic Fundamentals with Technical Trading, you’ll become one of the élite traders around the globe. This is exactly what our Global Macro Pro Trading Course lets you do.
This Global Macro Pro Trading Course is neatly divided into weekly segments that let you work at your own pace. And if you’re a complete beginner or haven’t traded for a while, you’ll also benefit from our complete Technical Trading Course.

More Info: Salepage
Value: $1247

also You can find my other: Trading-posts

MediaInfo: General
Complete name : Week 1 First Training Session Webinar - Fotis Trading Academ.mp4
Format : MPEG-4
Format profile : Base Media
Codec ID : isom (isom/iso2/avc1/mp41)
File size : 371 MiB
Duration : 1 h 18 min
Overall bit rate mode : Variable
Overall bit rate : 661 kb/s
Movie name : 11th feb webinar
Encoded date : UTC 2015-02-11 14:49:57
Tagged date : UTC 2015-02-11 14:49:57
Writing application : Lavf53.32.100

Video
ID : 1
Format : AVC
Format/Info : Advanced Video Codec
Format profile : Baseline@L1.3
Format settings : 3 Ref Frames
Format settings, CABAC : No
Format settings, RefFrames : 3 frames
Format settings, GOP : M=1, N=25
Codec ID : avc1
Codec ID/Info : Advanced Video Coding
Duration : 1 h 18 min
Bit rate : 558 kb/s
Nominal bit rate : 512 kb/s
Width : 788 pixels
Height : 442 pixels
Display aspect ratio : 16:9
Frame rate mode : Constant
Frame rate : 30.000 FPS
Color space : YUV
Chroma subsampling : 4:2:0
Bit depth : 8 bits
Scan type : Progressive
Bits/(Pixel*Frame) : 0.053
Stream size : 314 MiB (84%)
Writing library : x264 core 136
Encoding settings : cabac=0 / ref=3 / deblock=1:0:0 / analyse=0x1:0x111 / me=hex / subme=7 / psy=1 / psy_rd=1.00:0.00 / mixed_ref=1 / me_range=16 / chroma_me=1 / trellis=1 / 8x8dct=0 / cqm=0 / deadzone=21,11 / fast_pskip=1 / chroma_qp_offset=-2 / threads=48 / lookahead_threads=3 / sliced_threads=0 / nr=0 / decimate=1 / interlaced=0 / bluray_compat=0 / constrained_intra=0 / bframes=0 / weightp=0 / keyint=25 / keyint_min=13 / scenecut=40 / intra_refresh=0 / rc_lookahead=25 / rc=abr / mbtree=1 / bitrate=512 / ratetol=1.0 / qcomp=0.60 / qpmin=10 / qpmax=51 / qpstep=4 / ip_ratio=1.40 / aq=1:1.00
Language : English
Encoded date : UTC 2015-02-11 14:49:57
Tagged date : UTC 2015-02-11 14:49:57

Audio
ID : 2
Format : AAC
Format/Info : Advanced Audio Codec
Format profile : LC
Codec ID : mp4a-40-2
Duration : 1 h 18 min
Bit rate mode : Variable
Bit rate : 96.0 kb/s
Maximum bit rate : 128 kb/s
Channel(s) : 2 channels
Channel positions : Front: L R
Sampling rate : 44.1 kHz
Frame rate : 43.066 FPS (1024 SPF)
Compression mode : Lossy
Stream size : 54.0 MiB (15%)
Language : English
Default : Yes
Alternate group : 1
Encoded date : UTC 2015-02-11 14:49:57
Tagged date : UTC 2015-02-11 14:49:57
Screenshots
× Fotis Trading Academy – Global Macro Pro Trading Course Close
× Fotis Trading Academy – Global Macro Pro Trading Course Close
× Fotis Trading Academy – Global Macro Pro Trading Course Close
× Fotis Trading Academy – Global Macro Pro Trading Course Close
× Fotis Trading Academy – Global Macro Pro Trading Course Close

× Fotis Trading Academy – Global Macro Pro Trading Course Close
✅ Exclusive eLearning Videos ParRus-blog ← add to bookmarks

Feel free to contact me PM
when links are dead or want any repost
× Fotis Trading Academy – Global Macro Pro Trading Course Close



Download File Size:13.22 GB


Fotis Trading Academy - Global Macro Pro Trading Course
€30
Customers who bought this program also bought:

Home| All Programs| Today added Progs| Download Status| Customers opinion| Helpdesk| Shopping cart      
Copyright 2006-2019 ©   LPStore   All Rights Reserved





Adobe Photoshop CC 2019 20.0.5 x64 Multilingual Portable with plugins and Camera Raw profiles €110

             

Adobe Illustrator CC 2019 23.0.0.530 Multilingual x64 (1 dvd) €75






Autodesk Revit 2020 Multilingual (1 dvd) €140

             

Autodesk Product Design Suite Ultimate 2020 .sfx (x64) €250






DxO Optics Pro 11.4.0 Build 11979 Elite Multilingual x64 €22


SketchUp Pro 2019 9.1.174 Portable €30


Corel Painter 2020 20.0.0.256 Multilingual €40