Home| All Programs| Today added Progs| Download Status| Customers opinion| Helpdesk| Shopping cart

Program Search:

Shopping Cart:




*Note: Minimum order cost: €20
Maximum Total Price: €1500
We Recommend:
Building Drawers with Andy Rae €10 buy download

× Building Drawers with Andy Rae Close
Building Drawers with Andy RaeDVDRip | English | AVI | 720 x 480 | XviD ~2660 kbps | 29.970 fps
AC-3 | 192 kbps | 48.0 KHz | 2 channels | 1hr 20mn | 1.4 GBGenre: eLearning / Woodworking
If you take a good look inside a few houses, you'll find all types of drawers – each with its own style and functionality. There are dozens of ways to build drawers too - all requiring their own special strategies and techniques. In this new DVD on Building Drawers, master woodworker Andy Rae shows you precisely how to build a wide range of attractive, sturdy drawers that will work flawlessly for years.If you're a cabinetmaker - or aspire to be - this DVD will be a valuable reference tool, since building drawers is such an essential part of creating cabinets that will look great and work properly. If you're a trim carpenter who builds cabinets or built-ins, you'll find the clear, step-by-step demonstrations on this DVD will be a great help on the job.

Whether you're building cabinet drawers in a kitchen, bath, built-in or stand-alone furniture, you'll get all the expert advice you need to handle every project with confidence. From the most basic drawers to those joined by elegant hand-cut dovetails, it's all here for you to see – brought to you by the consummate professional.

also You can watch my other helpful: Woodworking-posts
(if old file-links don't show activity, try copy-paste them to the address bar)

MediaInfo: General
Complete name : Building_Drawers.avi
Format : AVI
Format/Info : Audio Video Interleave
File size : 1.37 GiB
Duration : 1h 8mn
Overall bit rate : 2 860 Kbps
Writing application : VirtualDubMod 1.5.4.1 (build 2178/release)
Writing library : VirtualDubMod build 2178/release

Video
ID : 0
Format : MPEG-4 Visual
Format profile : Advanced Simple@L5
Format settings, BVOP : Yes
Format settings, QPel : No
Format settings, GMC : No warppoints
Format settings, Matrix : Custom
Codec ID : XVID
Codec ID/Hint : XviD
Duration : 1h 8mn
Bit rate : 2 660 Kbps
Width : 720 pixels
Height : 480 pixels
Display aspect ratio : 3:2
Frame rate : 29.970 fps
Standard : NTSC
Color space : YUV
Chroma subsampling : 4:2:0
Bit depth : 8 bits
Scan type : Progressive
Bits/(Pixel*Frame) : 0.257
Stream size : 1.27 GiB (93%)
Writing library : XviD 1.2.1 (UTC 2008-12-04)

Audio
ID : 1
Format : AC-3
Format/Info : Audio Coding 3
Mode extension : CM (complete main)
Codec ID : 2000
Duration : 1h 8mn
Bit rate mode : Constant
Bit rate : 192 Kbps
Channel(s) : 2 channels
Channel positions : Front: L R
Sampling rate : 48.0 KHz
Bit depth : 16 bits
Stream size : 94.0 MiB (7%)
Alignment : Aligned on interleaves
Interleave, duration : 96 ms (2.88 video frames)
Interleave, preload duration : 96 ms
Full ScreenShots
× Building Drawers with Andy Rae Close
× Building Drawers with Andy Rae Close
× Building Drawers with Andy Rae Close
× Building Drawers with Andy Rae Close
✅ Exclusive eLearning Videos ParRus-blog ← add to bookmarks

Feel free to contact me PM
when links are dead or want any repost
× Building Drawers with Andy Rae Close



Download File Size:1.39 GB


Building Drawers with Andy Rae
€10
Customers who bought this program also bought:
  • ShopNotes Magazine The Complete Final Edition DVD (1 dvd) €10

  • Home| All Programs| Today added Progs| Download Status| Customers opinion| Helpdesk| Shopping cart      
    Copyright 2006-2019 ©   LPStore   All Rights Reserved





    Adobe Photoshop CC 2019 20.0.5 x64 Multilingual Portable with plugins and Camera Raw profiles €110

                 

    Adobe Illustrator CC 2019 23.0.0.530 Multilingual x64 (1 dvd) €75






    Microsoft Office 2019 Professional Plus version 1810 Build 11001.20108 x32 x64 (1 dvd) €99

                 

    Microsoft Office 2019 for Mac 16.26 VL Multilingual €99






    Autodesk AutoCAD 2020 €100

                 

    SolidWorks 2019 SP3.0 Premium Multilingual €110