Home| All Programs| Today added Progs| Download Status| Customers opinion| Helpdesk| Shopping cart

Program Search:

Shopping Cart:




*Note: Minimum order cost: €20
Maximum Total Price: €1500
We Recommend:

Swing Trade Pro 2.0 - PivotBoss €15 buy download

× Swing Trade Pro 2.0 – PivotBoss Close
Swing Trade Pro 2.0 – PivotBossWEBRip | English | MP4 | 1920 x 1080 | AVC ~495 Kbps | 30 fps
AAC | 126 Kbps | 44.1 KHz | 2 channels | 09:36:22 | 2.58 GBGenre: eLearning Video / Forex, Trading, Stock
Swing Trade Pro 2.0 is a powerful 5-step course that will teach you how to profit from the swings of the market like a professional trader, from managing risk to setup and strategy selection. STP 2.0 will teach you how to find and trade high probability opportunities from our proven trade sequences, and will show you how to execute expert entries into the market, while learning to manage risk like a professional. In just 10 short hours, this training will teach you concepts and techniques that you can utilize for a lifetime of successful active trading and investing.You Will Learn How To:

Find quality trading opportunities in any market using our day type and trade sequence blueprints
Identify the best entry points for each day type and trade sequence
Execute entries at the best trade location
Manage your risk, increasing and decreasing exposure like a professional
Select the right options strategy for the opportunity you want to trade
Protect long term positions and investments using options
Produce consistent income from long term positions using simple options strategies

(if old file-links don't show activity, try copy-paste them to the address bar)
You can find my other useful: Trading-posts

MediaInfo: General
Complete name : 4.0-Step 03-Strategy Toolkit.MP4
Format : MPEG-4
Format profile : Base Media
Codec ID : isom (isom/iso2/avc1/mp41)
File size : 1.14 GiB
Duration : 4 h 21 min
Overall bit rate mode : Variable
Overall bit rate : 624 kb/s
Encoded date : UTC 2018-09-20 00:45:46
Tagged date : UTC 2018-09-20 00:45:46

Video
ID : 1
Format : AVC
Format/Info : Advanced Video Codec
Format profile : High@L4
Format settings : CABAC / 2 Ref Frames
Format settings, CABAC : Yes
Format settings, RefFrames : 2 frames
Codec ID : avc1
Codec ID/Info : Advanced Video Coding
Duration : 4 h 21 min
Bit rate : 495 kb/s
Width : 1 920 pixels
Height : 1 080 pixels
Display aspect ratio : 16:9
Frame rate mode : Constant
Frame rate : 30.000 FPS
Color space : YUV
Chroma subsampling : 4:2:0
Bit depth : 8 bits
Scan type : Progressive
Bits/(Pixel*Frame) : 0.008
Stream size : 926 MiB (79%)
Encoded date : UTC 2018-09-20 00:45:46
Tagged date : UTC 2018-09-20 00:45:46
Color range : Limited
Color primaries : BT.709
Transfer characteristics : BT.709
Matrix coefficients : BT.601

Audio
ID : 2
Format : AAC
Format/Info : Advanced Audio Codec
Format profile : LC
Codec ID : mp4a-40-2
Duration : 4 h 21 min
Bit rate mode : Variable
Bit rate : 126 kb/s
Channel(s) : 2 channels
Channel positions : Front: L R
Sampling rate : 44.1 kHz
Frame rate : 43.066 FPS (1024 SPF)
Compression mode : Lossy
Stream size : 235 MiB (20%)
Language : English
Default : Yes
Alternate group : 1
Encoded date : UTC 2018-09-20 00:49:01
Tagged date : UTC 2018-09-20 00:49:01
Screenshots
× Swing Trade Pro 2.0 – PivotBoss Close
× Swing Trade Pro 2.0 – PivotBoss Close
× Swing Trade Pro 2.0 – PivotBoss Close
× Swing Trade Pro 2.0 – PivotBoss Close
× Swing Trade Pro 2.0 – PivotBoss Close
× Swing Trade Pro 2.0 – PivotBoss Close
× Swing Trade Pro 2.0 – PivotBoss Close
✅ Exclusive eLearning Videos ParRus-blog ← add to bookmarks

Feel free to contact me PM
when links are dead or want any repost
× Swing Trade Pro 2.0 – PivotBoss Close



Download File Size:2.52 GB


Swing Trade Pro 2.0 - PivotBoss
€15
Customers who bought this program also bought:

Home| All Programs| Today added Progs| Download Status| Customers opinion| Helpdesk| Shopping cart      
Copyright 2006-2019 ©   LPStore   All Rights Reserved





9327 Fantasy & Sci-Fi eBooks Collection 9327 PDF Books eBook €60


Cambridge University History Collection PDF eBooks €100

                   





Microsoft Office 2019 Professional Plus version 1810 Build 11001.20108 x32 x64 (1 dvd) €99

             

Microsoft Office 2019 for Mac 16.26 VL Multilingual €99






FileMaker Pro 18 Advanced 18.0.2.209 Multilingual €60


Pinnacle Studio Ultimate 22 €25


CorelDRAW Graphics Suite 2019 Multilingual €60