Home| All Programs| Today added Progs| Download Status| Customers opinion| Helpdesk| Shopping cart

Program Search:

Shopping Cart:




*Note: Minimum order cost: €20
Maximum Total Price: €1500
We Recommend:
Mastering Your Bandsaw with Mark Duginske €10 buy download

× Mastering Your Bandsaw with Mark Duginske Close
Mastering Your Bandsaw with Mark DuginskeDVDRip | English | AVI | 708 x 480 | XviD ~2537 kbps | 29.970 fps
MP3 | 128 kbps | 44.1 KHz | 2 channels | 57 min | 1.07 GBGenre: eLearning / Woodworking
Through his books and magazine articles and in seminars across the country, Mark Duginske has helped thousands of bandsaw owners tweak their wayward machines into precision tune. He will show you how to do that and more, including some really extraordinary handsaw tricks and techniques.Among the topics Duginske covers are:
cutting cones
making bandsawn boxes out of 2-in. thick stock
resawing veneer 1/32 in. thick
making perfect dovetails
cutting tenons
resawing boards from firewood

Nothing beats the video format for seeing just how an expert handles the bandsaw. Watching this video is like having Duginske himself in your shop, showing you the subtle nuances.

also You can watch my other helpful: Woodworking-posts
(if old file-links don't show activity, try copy-paste them to the address bar)

MediaInfo: General
Complete name : Taunton - Mastering Your Bandsaw.avi
Format : AVI
Format/Info : Audio Video Interleave
File size : 1.07 GiB
Duration : 57mn 1s
Overall bit rate : 2 678 Kbps
Video #1
ID : 1
Format : MPEG-4 Visual
Format profile : Simple@L3
Format settings, BVOP : Yes
Format settings, QPel : No
Format settings, GMC : No warppoints
Format settings, Matrix : Default (H.263)
Muxing mode : Packed bitstream
Codec ID : XVID
Codec ID/Hint : XviD
Duration : 57mn 1s
Bit rate : 2 537 Kbps
Width : 708 pixels
Height : 480 pixels
Display aspect ratio : 1.475
Frame rate : 29.970 fps
Resolution : 24 bits
Colorimetry : 4:2:0
Scan type : Progressive
Bits/(Pixel*Frame) : 0.249
Stream size : 1.01 GiB (95%)
Writing library : XviD 1.1.0 Beta2 (UTC 2005-04-04)
Audio #0
ID : 0
Format : MPEG Audio
Format version : Version 1
Format profile : Layer 3
Codec ID : 55
Codec ID/Hint : MP3
Duration : 57mn 1s
Bit rate mode : Constant
Bit rate : 128 Kbps
Channel(s) : 2 channels
Sampling rate : 44.1 KHz
Resolution : 16 bits
Video delay : 26ms
Stream size : 52.2 MiB (5%)
Alignment : Split accross interleaves
Interleave, duration : 33 ms (1.00 video frame)
Screenshots
× Mastering Your Bandsaw with Mark Duginske Close
× Mastering Your Bandsaw with Mark Duginske Close
× Mastering Your Bandsaw with Mark Duginske Close
× Mastering Your Bandsaw with Mark Duginske Close
× Mastering Your Bandsaw with Mark Duginske Close
✅ Exclusive eLearning Videos ParRus-blog ← add to bookmarks

Feel free to contact me PM
when links are dead or want any repost
× Mastering Your Bandsaw with Mark Duginske Close



Download File Size:1.04 GB


Mastering Your Bandsaw with Mark Duginske
€10
Customers who bought this program also bought:

Home| All Programs| Today added Progs| Download Status| Customers opinion| Helpdesk| Shopping cart      
Copyright 2006-2019 ©   LPStore   All Rights Reserved





9327 Fantasy & Sci-Fi eBooks Collection 9327 PDF Books eBook €60


Cambridge University History Collection PDF eBooks €100

                   





Microsoft Office 2019 Professional Plus version 1810 Build 11001.20108 x32 x64 (1 dvd) €99

             

Microsoft Office 2019 for Mac 16.26 VL Multilingual €99






FileMaker Pro 18 Advanced 18.0.2.209 Multilingual €60


Pinnacle Studio Ultimate 22 €25


CorelDRAW Graphics Suite 2019 Multilingual €60